Maid For Each Other (2020) Hot Shots Hindi 1080p WEB DL

seeders: 187
leechers: 32
updated:
Added by krishh1337 in Other


ᕦ( ▨̅ ͜▨̅ )ᕥ SPECIAL DEAL - OFFER ᕦ( ▨̅ ͜▨̅ )ᕥ
strongly advises you to use Nord while downloading torrents.
Nord is the safest on the market, and the fastest as well.
No IP Log is saved using Nord, avoid other providers and choose the safest one.
Click here and buy Nord it's on rebates today!
We were able to verify your IP: 35.168.111.191, country: United States and you are near by: Ashburn.
If we can do that, others can too, protect your privacy with Nord.
is trying the best for you!
ᕦ( ▨̅ ͜▨̅ )ᕥ SPECIAL DEAL - OFFER ᕦ( ▨̅ ͜▨̅ )ᕥ


Description

 

Maid for Each Other (2020) Hot Shots Hindi

Storyline : 
A Man's Affair With His Housemaid Leads To A Dark Consequence. 
His Disturbed Relationship With His Wife Leads Them Both To Get Intimate With Erotic 
Encounters Weaved Into A Daisy Chain Of Delightful Sensuality As He Finds All That He Desires In Her. 
But She Becomes Dangerously Infatuated With Him Along The Way. 
Watch What Happens Next In The CONFESSION.

Cast: Micheal Rana, Gehna Vasisht, Revathi Acharya.
Director: M.j.

SOURSE: BONSAI HD.

Format : Matroska
Format version : Version 4
File size : 490 MiB
Duration : 19 min 34 s
Overall bit rate : 3 503 kb/s

Video
ID : 1
Format : AVC
Format/Info : Advanced Video Codec
Format profile : [email protected] 
Format settings : CABAC / 3 Ref Frames
Format settings, CABAC : Yes
Format settings, Reference : 3 frames
Codec ID : V_MPEG4/ISO/AVC
Duration : 19 min 34 s
Bit rate : 3 379 kb/s
Width : 1 920 pixels
Height : 1 080 pixels
Display aspect ratio : 16:9
Frame rate mode : Constant
Frame rate : 25.000 FPS
Color space : YUV
Chroma subsampling : 4:2:0
Bit depth : 8 bits
Scan type : Progressive
Bits/(Pixel*Frame) : 0.065
Stream size : 473 MiB (96%)
Writing library : x264 core 

Audio
ID : 2
Format : AAC LC
Format/Info : Advanced Audio Codec Low Complexity
Codec ID : A_AAC-2
Duration : 19 min 34 s
Bit rate : 122 kb/s
Channel(s) : 2 channels
Channel layout : L R
Sampling rate : 44.1 kHz
Frame rate : 43.066 FPS (1024 SPF)
Compression mode : Lossy
Stream size : 17.1 MiB (3%)
Language : Hindi
Default : Yes
Forced : No


Sharing Widget


Download torrent
Size: 490.4 MB
seeders:187
leechers:32
Maid For Each Other (2020) Hot Shots Hindi 1080p WEB DL - (514221670 Bytes)



To share this torrent use the code below and insert it into comments, status messages, forum posts or your signature.

Torrent: Maid For Each Other (2020) Hot Shots Hindi 1080p WEB DL

Trackers

tracker name
udp://tracker.coppersurfer.tk:6969/announce
udp://tracker.pirateparty.gr:6969/announce
udp://tracker.tiny-vps.com:6969/announce
http://t.nyaatracker.com:80/announce
udp://tracker.opentrackr.org:1337/announce
udp://open.stealth.si:80/announce
udp://tracker.internetwarriors.net:1337/announce
udp://tracker.leechers-paradise.org:6969/announce
udp://9.rarbg.to:2800/announce
http://tracker3.itzmx.com:6961/announce
http://tracker1.itzmx.com:8080/announce
http://tracker.electro-torrent.pl:80/announce
http://retracker.gorcomnet.ru/announce
udp://tracker.open-internet.nl:6969/announce
udp://tracker.zer0day.to:1337/announce
udp://tracker.leechers-paradise.org:6969/announce
udp://coppersurfer.tk:6969/announce
µTorrent compatible trackers list

Locations

name
KickassTorrents
Torrent hash: 7A534399850A4607F365D17D52BFF61EBB71F766

ᕦ( ▨̅ ͜▨̅ )ᕥ SPECIAL DEAL - OFFER ᕦ( ▨̅ ͜▨̅ )ᕥ
strongly advises you to use Nord while downloading torrents.
Nord is the safest on the market, and the fastest as well.
No IP Log is saved using Nord, avoid other providers and choose the safest one.
Click here and buy Nord it's on rebates today!
We were able to verify your IP: 35.168.111.191, country: United States and you are near by: Ashburn.
If we can do that, others can too, protect your privacy with Nord.
is trying the best for you!
ᕦ( ▨̅ ͜▨̅ )ᕥ SPECIAL DEAL - OFFER ᕦ( ▨̅ ͜▨̅ )ᕥ


All Comments

*comments box temporarily disabled*
Report a bug